ช่วยกันกด LIke เพื่อติดตามข่วยสารต่างๆ
หมดวันที่ 6/12/2556
พบเห็นการละเมิดลิขสิทธิ์ในเว็บนี้ แจ้งที่ niponpada@gmail.com ทางเราจะ ลบสิ่งนั้นทำนที












 
สถิติ
เปิดเมื่อ18/09/2011
อัพเดท6/09/2013
ผู้เข้าชม4673030
แสดงหน้า6825808
บทความ
collection UP
"[ฝรั่ง]-[ฉายที่นิพร้อมโรง!!] The Wolverine 2013 | เดอะ วูล์ฟเวอรีน [7.3 IMDb] [มหากาพย์ภาพยนตร์แอ็คชั่นผจญภัย..ที่จะมาสะกดทุกสายตา ทุกห้วงอารมณ์!!]-[VCD] [หนังซูม]-[พากย์ไทยโรง]"
"[ฝรั่ง] โหลดหนัง Despicable Me 2 (2013) - มิสเตอร์แสบ ร้ายเกินพิกัด 2 [720p.TS.XviD-AVI]-[พากย์ไทยโรง]"
[PC] NEED FOR SPEED : THE RUN [DIRECT LINKS][FULL] ลิ้งตรงโหลดเต็มสปีด
[PC] โหลดเกมส์ WARRIORS OROCHI [One2Up]โ หลดแรงเต็มสปีด [เกมส์เก่าเล่าใหม่]
"[ฝรั่ง]-[ฉายที่นิพร้อมโรง!!] Now You See Me (2013) อาชญากลปล้นโลก [7.5 IMDb][มายากลอัจฉริยะจะตรึงทุกสายตา..โจรกรรมครั้งมหึมาจะหยุดโลก!!]-[VCD] [หนังซูม]-[พากย์ไทยโรง] "
"[ฝรั่ง - ใหม่ - ชนโรงอย่างจัง] Pacific Rim - สงครามอสูรเหล็ก [พากย์ไทยโรงเท่านั้น] [หนังซูม]
"[ฝรั่ง]-[ฉายที่นิแล้วพร้อมโรง!!] World War Z (2013) l มหาวิบัติสงคราม Z [7.3 IMDb][แบรด พิตต์ กับสงครามซึ่งเป็นมหันตภัยคุกคามต่อมวลมนุษยชาติที่สร้างความตระหนกและน่าสะพรึงกลัวกว่าครั้งใด ๆ ในโลก!!]-[VCD] [หนังซูม]-[พากย์ไทยโรง]"
[Movie][ฝรั่ง]-[โคตรชัด!!] G.I. Joe : Retaliation (2013) - จีไอโจ สงครามระห่ำแค้นคอบร้าทมิฬ [การกลับมาอีกครั้งของมหากาฬภาพยนตร์แอ๊คชั่น มันส์สนั่นจอ!!]-[VCD][one2up] [Modified]-[พากย์ไทยโรง]
[Program]CyberLink PowerDVD 2013 Ultra v13.0.2720.57 [ตัวเต็มลงแล้วไม่ต้อง Crack หรือ Patch][One2up]
[ฝรั่ง]-[ชัดกว่านี้ยังไม่มี] Man of Steel (2013) l บุรุษเหล็กซูเปอร์แมน [7.8 IMDb] [การกลับมาอีกครั้งของซุปเปอร์ฮีโร่ในตำนาน ..ที่ครองใจคนทั้งโลก!!]-[VCD] [หนังซูม]-[พากย์ไทยโรง]
[Program]Camtasia Studio v7.1.0 โปรแกรมบันทึกภาพหน้าจอ คอมพิวเตอร์ในรูปแบบวีดีโอ และ คู่มือ [KEY]
[ไทย][Master]พี่มากพระโขนง-[VCD][one2up]
[One2up]WinRAR V.5.03 เวชั่นใหม่ล่าสุดภาษาไทยครับ เสถียรทุกวินโดว์เร็วสุดๆ[Full][1part]
OFFICE ProfessionalPlus2013 + Activate 100%
[One2up]Avira Internet Security 13.0.0.3736 Incl Key file + Keygen @ Only By THE RAIN {HKRG}[Full][กุญแจ] 1part
Youtube Downloader Ultimate 7.3.3.0+ Serial
[Program]Office 2003 & 2007 Professional Thai+Key (AIO) โปรแกรมทำเอกสารที่ทุกบ้านต้องมีไว้! [Full][กุญแจ]
Flash Player Pro 5.4 [FULL] แฟลช Player Pro เป็นแฟลชชุดที่มีประโยชน์มากครับ
Magic Camera 8.5 full ล่าสุด ตัวเต็มครับ
Internet Download Manager (IDM) v6.16 build 2 Incl Crack + Key
ใช้แอพฯ Android บน PC ด้วยโปรแกรม BlueStacks
cFosSpeed 9.02 Build 2032 Final โปรแกรมเร่งความเร็วอินเทอร์เน็ต เวอร์ชั่นใหม่ 9.02
Game Review
เกมส์ Inversion mutiplayer มาดูกัน




"[ฝรั่ง - ใหม่ - ชนโรงอย่างจัง] Pacific Rim - สงครามอสูรเหล็ก [พากย์ไทยโรงเท่านั้น] [หนังซูม]

อ่าน 2176 | ตอบ 1
 


ชื่อภาษาไทย : แปซิฟิก ริม สงครามอสูรเหล็ก (Pacific Rim)

 จัดจำหน่ายโดย : Warner Bros

 วันที่เข้าฉาย : 11 กรกฎาคม 2556



ประเภทหนัง : Action, Adventure, Sci-Fi

ผู้กำกับ : Guillermo del Toro

บทภาพยนตร์ : Travis Beacham

นักแสดงนำ : Idris Elba, Charlie Hunnam, Rinko Kikuchi







   Pacific Rim เป็นเรื่องราวเกี่ยวกับ เมื่อกองทัพสัตว์ประหลาดที่โหดร้ายในนามของ ไคจู อุบัติขึ้นมาจากทะเล จึงเกิดสงครามที่คร่าชีวิตคนนับล้านและทำลายทรัพยากรของมนุษย์มานานหลายปี  ในการต่อสู้กับสัตว์ประหลาดตัวยักษ์ ไคจู

ทำให้ต้องมีการประดิษฐ์คิดค้นอาวุธพิเศษขึ้นมา: หุ่นยนต์ยักษ์ที่เรียกว่า เจเกอร์ส ซึ่งต้องควบคุมพร้อมกันโดยผู้ควบคุม 2 คน จิตของพวกเขาจะถูกเชื่อมต่อกับสะพานกระแสจิต แต่ถึงแม้เจเกอร์สจะพิสูจน์ว่าพวกเขาไม่สามารถปกป้องผู้คนให้พ้น

จากไคจูจอมอึดได้บนเส้นทางแห่งความพ่ายแพ้ กองกำลังแห่งมนุษยชาติไม่มีทางเลือก ต้องหวนไปหากลุ่มฮีโร่ที่ไม่น่าเชื่อ ทั้ง 2 คนอย่างอดีตนักบินตกอับ (ชาร์ลี ฮันแนม) และผู้ฝึกหัดที่ยังไม่ผ่านการทดสอบ (ริงโกะ คิคูชิ) ผู้ต้องมาร่วมทีมกัน

สร้างตำนานเจเกอร์สที่ตกยุคจากอดีต และพวกเขายังยืนหยัดอยู่เป็นความหวังสุดท้ายของเหล่ามวลมนุษย์ที่ต้องต่อสู้กับหายนะล้างโลกที่กำลังทวีคูณ





General

 General

  Complete name : Pacific Rim ThaiRong-Tawee1004.mkv

  Format : Matroska

  Format version : Version 4 / Version 2

  File size : 1.40 GiB

  Duration : 2h 2mn

  Overall bit rate : 1 644 Kbps

  Encoded date : UTC 2013-07-16 13:33:07

  Writing application : mkvmerge v6.3.0 ( You can t stop me! ) built on Jun 28 2013 20:09:41

  Writing library : libebml v1.3.0 + libmatroska v1.4.0

Video #1

  ID : 1

  Format : MPEG-4 Visual

  Format profile : Advanced Simple@L5

  Format settings, BVOP : Yes

  Format settings, QPel : No

  Format settings, GMC : No warppoints

  Format settings, Matrix : Default (H.263)

  Codec ID : V_MS/VFW/FOURCC / XVID

  Codec ID/Hint : XviD

  Duration : 2h 2mn

  Bit rate : 1 483 Kbps

  Width : 720 pixels

  Height : 368 pixels

  Display aspect ratio : 1.957

  Frame rate mode : Constant

  Frame rate : 29.383 fps

  Color space : YUV

  Chroma subsampling : 4:2:0

  Bit depth : 8 bits

  Scan type : Progressive

  Compression mode : Lossy

  Bits/(Pixel*Frame) : 0.191

  Stream size : 1.27 GiB (90%)

  Writing library : XviD 64

  Default : Yes

  Forced : No

Audio #2

  ID : 2

  Format : MPEG Audio

  Format version : Version 1

  Format profile : Layer 3

  Codec ID : A_MPEG/L3

  Codec ID/Hint : MP3

  Duration : 2h 2mn

  Bit rate mode : Constant

  Bit rate : 128 Kbps

  Channel(s) : 2 channels

  Sampling rate : 48.0 KHz

  Compression mode : Lossy

  Stream size : 112 MiB (8%)

  Title : ThaiRong By Tawee1004

  Writing library : LAME3.99r

  Encoding settings : -m s -V 4 -q 3 -lowpass 17 -b 128

  Language : Thai

  Default : Yes

  Forced : No







Very Big Thank ไฟล์ต้นฉบับ Pacific Rim 2013 READNFO CAM XViD UNiQUE จากเว็ปนอก  :em34:    

เสียงไทยโรง อัดเองจากมือถือ sony xperia   โมเสียงไทยโรง โดย Tawee1004 ไม่แน่ใจเสียงโรงผ่านนะครับพี่น้อง





เครดิต Tawee1004


ขนาดไฟล์ 1.4 GB  Part ละ 300 MB

 
DownLoad ::  

Part 1

Part 2


Part 3

Part 4


Part 5

Part 6


Password :: game-collection
 
แตกไฟล์ โดยใช้โปรแกรม RAR
ผม
ใส่ recovery record 5 % ทุกไฟล์
3วันในการอัพไฟล์ ผมขอ
3นาทีในการพิมพ์ขอบคุณ
ไฟล์เสีย PM ที่ Martinez
ความคิดเห็น :
1
อ้างอิง

เด่น
ขอบคุณ
 
เด่น [1.10.133.xxx] เมื่อ 1/01/2014 16:48
ความคิดเห็นของผู้เข้าชม
ชื่อผู้แสดงความคิดเห็น :
สถานะ : รหัสผ่าน :
ลิงค์ที่เกี่ยวข้อง :
รหัสความปลอดภัย :